#TITLE:Hunting For You;
#SUBTITLE:;
#ARTIST:Togo Project feat. Sana;
#TITLETRANSLIT:;
#SUBTITLETRANSLIT:;
#ARTISTTRANSLIT:;
#CREDIT:;
#BANNER:;
#BACKGROUND:;
#LYRICSPATH:;
#CDTITLE:;
#MUSIC:Hunting For You.mp3;
#MUSICLENGTH:112.718;
#OFFSET:0.460;
#SAMPLESTART:87.505;
#SAMPLELENGTH:12.000;
#SELECTABLE:YES;
#BPMS:0.000=105.000;
#STOPS:;
#BGCHANGES:;
#FIRSTBEAT:12.000;

#LASTBEAT:198.250;

#SONGFILENAME:Songs/EXTRA/Hunting For You/Hunting For You.sm;

#HASMUSIC:1;

#HASBANNER:0;


//---------------dance-single - MANIAC----------------
#NOTES:
     dance-single:
     MANIAC:
     hard:
     9:
     0.525,0.484,0.488,0.204,0.293,336.000,55.000,23.000,0.000,0.000:


0000
0000
0000
0000
,
0000
0000
0000
0000
,
0000
0000
0000
0000
,
1000
0000
1000
0000
0001
0000
0001
0000
0010
0000
0100
0000
0010
0100
0000
0000
,
1001
0000
0000
0000
0011
0000
0010
0000
0001
0000
1000
0000
0100
0000
0001
0100
,
0000
0000
0000
0000
0110
0000
0000
1000
0100
1000
0001
0000
0010
0001
0000
1000
,
0000
0000
0000
0000
0110
0000
1000
0000
0110
0000
0001
0000
1000
0010
0000
0000
,
0101
0000
0011
0000
1000
0000
0100
0000
1000
0000
1000
0000
0100
0010
0000
0010
,
0001
0000
0000
1000
0100
0000
0010
0000
0100
0000
0110
0000
0101
0000
1000
0200
,
0000
0000
0000
0300
0000
0000
0000
0000
1100
0000
0000
0000
0011
0000
0000
0000
,
1001
0000
0001
0000
1000
0100
0000
1000
0001
0010
0100
1000
0000
0000
0000
0000
,
1001
0000
1000
0000
0001
0100
0000
0001
1000
0010
0100
0001
0000
0000
0000
0000
,
2000
0000
0000
0000
3200
0000
0000
0000
0320
0000
0000
0030
0002
0000
0000
0000
,
1003
0000
0100
0010
0100
0000
0010
0100
0010
0000
0000
0000
1010
0000
0011
0000
,
1010
0000
0000
1010
0000
0000
1000
0000
0010
0000
0001
0000
0010
0000
1000
0000
,
0100
0000
0100
0001
0000
0101
1010
0110
,
1001
0000
0000
2000
0000
0000
0000
0000
3001
0000
0001
0000
0000
0000
1000
0000
,
0100
0000
0000
0100
0001
0000
1100
0000
0001
0000
1100
0000
0001
0000
1100
0000
,
1100
0000
0000
0022
0000
0000
0000
0033
0000
0000
0000
0000
1000
0000
0100
0000
,
0010
0100
1000
0010
0001
0010
1000
0100
,
0010
0001
1000
0010
0100
0001
1000
0001
,
0100
0010
0100
0010
1000
0100
0010
0000
,
1100
0000
0100
0000
0010
0000
0001
0000
1000
0000
0001
0000
0000
0000
1000
0100
,
1000
0010
1000
0000
1000
0000
1000
0000
0000
0000
0010
0000
0100
0000
0001
0000
,
0100
0000
0000
0100
1000
0000
0000
1000
0100
0000
0000
0100
0010
0000
0000
0010
,
0100
0100
0001
0100
1000
0000
0001
1000
,
0010
0000
0000
0010
1000
0000
0100
0000
0010
0100
0010
0000
0001
0000
1000
0000
,
1000
0100
1000
0000
0100
0010
0100
0000
0022
0000
0000
0000
0000
0033
0000
0000
,
1100
0100
0100
0100
0110
0010
0010
0011
,
1001
1001
0000
2002
0003
0000
3001
0001
,
1000
0000
0100
0000
1000
0000
0000
0010
0001
0000
0010
0000
0001
0000
0000
0000
,
1000
0000
1000
0000
0010
0000
0000
0100
0001
0000
0001
0000
0110
0000
0000
0000
,
1000
0000
0100
0000
0010
0000
0000
0001
0100
0000
0200
0000
0000
0000
0310
0000
,
1000
0100
0010
0001
0002
0000
1003
0000
,
1000
1000
0010
0010
0100
0100
0001
0001
,
1000
0000
0000
0010
0001
0010
0001
0000
1000
0000
0100
0000
0110
0000
0110
0000
,
1000
0100
1000
0000
0001
0100
0001
0000
1000
0100
1000
0000
0001
0100
0001
0000
,
1100
0000
0000
1001
0000
0000
0022
0000
0000
0000
0000
0000
0000
0000
0033
0000
,
1000
0000
1000
0000
0001
0000
0001
0000
0010
0000
0100
0000
0010
0100
0000
0000
,
1001
0000
0000
0000
0011
0000
0010
0000
0001
0000
1000
0000
0100
0000
0001
0100
,
0000
0000
0000
0000
0110
0000
0000
1000
0100
1000
0001
0000
0010
0001
0000
1000
,
0000
0000
0000
0000
0110
0000
1000
0000
0110
0000
0001
0000
1000
0010
0000
0000
,
0101
0000
0011
0000
1000
0000
0100
0000
1000
0000
1000
0000
0100
0010
0000
0010
,
0001
0000
0000
1000
0100
0000
0010
0000
0100
0000
0110
0000
0101
0000
1000
0200
,
0000
0000
0000
0300
0000
0000
0000
0000
1100
0000
0000
0000
0011
0000
0000
0000
,
1001
0000
0001
0000
1000
0100
0000
1000
0001
0010
0100
1000
0000
0000
0000
0000
,
1001
0000
1000
0000
0001
0100
0000
0001
1000
0010
0100
0001
0000
0000
0000
0000
,
2000
0000
0000
0000
3200
0000
0000
0000
0320
0000
0000
0030
0002
0000
0000
0000
,
1003
0000
0100
0010
0100
0000
0010
0100
0010
0000
0000
0000
1020
0000
0100
0000
,
0130
0000
0000
0000
0201
0000
0000
0000
0000
0300
0000
0000
0000
0000
0000
0000;

//---------------dance-single - ANOTHER----------------
#NOTES:
     dance-single:
     ANOTHER:
     medium:
     4:
     0.327,0.329,0.009,0.089,0.000,247.000,1.000,10.000,0.000,0.000:


0000
0000
0000
0000
,
0000
0000
0000
0000
,
0000
0000
0000
0000
,
0000
0000
0000
1000
,
0100
0000
1000
0010
1000
0001
0100
0001
,
0010
0000
0000
0000
1000
0100
1000
0010
,
0100
0000
0001
0000
0001
1000
0100
0010
,
0100
0100
0000
0000
1000
0001
0100
0001
,
1000
0000
0100
0000
0010
0100
0010
0001
,
1000
1000
0010
0100
,
0001
0000
0001
0000
0001
1000
0100
0000
,
0001
0000
1000
0000
1000
0100
0010
0002
,
0000
0000
1000
0000
1000
0000
1000
0003
,
1000
0100
1000
0100
1000
0000
0010
0001
,
1000
0000
1000
0000
0100
0010
0001
1000
,
0100
0000
0010
0000
0100
0010
0100
0010
,
0100
0000
1000
0000
0002
0000
1000
1000
,
1000
0003
0100
0000
0010
0010
1000
0100
,
0010
0000
0100
0000
1000
0000
0010
0010
,
0001
0000
0000
0000
1000
0100
1000
0100
,
1000
0000
0000
0001
0010
0000
0000
0001
,
0010
0000
0000
0000
0011
0001
1000
0001
,
1000
0000
0001
1000
0100
0010
0100
1000
,
0001
0000
0100
0000
0000
0010
0001
0010
,
0100
0000
0100
1000
0010
1000
0100
0000
,
0000
0001
1000
0100
0010
0000
0001
0000
,
0010
0000
0100
0000
0100
0100
0100
0000
,
0010
0010
0100
0100
0100
0000
0002
0000
,
1003
0200
0310
1000
,
0001
0001
0100
0000
0100
0000
0010
1000
,
0100
0000
0001
0000
0010
0001
0100
0000
,
0001
0000
0100
0000
1000
0100
0001
0000
,
0001
0000
0010
0000
1000
0010
0001
0000
,
0001
0000
0100
0000
1000
0010
1000
0020
,
2030
0000
0010
0000
3001
0000
0010
0100
,
1000
0000
0001
0000
0010
0000
0100
0001
,
0100
0001
1000
0100
0001
0100
1000
0100
,
0001
0001
0002
0000
,
1000
1000
1000
1000
,
1003
0000
0010
0010
0100
0000
1000
0000
,
0001
0000
0010
0000
0100
1000
0010
0100
,
0001
0000
0100
0000
0001
0100
1000
0010
,
0001
0010
1000
0000
0100
1000
0100
1000
,
0001
0000
0000
0100
0001
0010
0001
0010
,
0001
0000
0000
0000
0002
0003
0020
0030
,
1000
0100
0010
0000
1000
0100
0010
0000
,
0001
0100
0010
0000
0001
0100
0010
0000
,
0010
1000
0100
0010
0100
1000
0100
0010
,
0100
0000
1000
0000
0001
0000
1000
1000
,
0200
0000
0300
0000;

//---------------dance-single - BASIC----------------
#NOTES:
     dance-single:
     BASIC:
     easy:
     3:
     0.179,0.218,0.044,0.071,0.000,128.000,5.000,8.000,0.000,0.000:


0000
0000
0000
0000
,
0000
0000
0000
0000
,
0000
0000
0000
0000
,
0000
0000
0000
0000
,
0011
0000
0000
1000
,
0100
0000
0000
0010
,
0100
0000
0000
0100
,
0010
0000
0000
0010
,
0002
0000
0000
0000
,
2003
0000
0000
0010
,
3010
0010
0100
0001
,
0000
0100
0000
1000
,
0000
0100
0010
0100
,
0002
0000
0000
0000
,
0013
1100
0000
0010
,
0100
0001
0000
0100
,
0101
0101
0000
0010
,
1000
0000
0100
0100
,
0020
0000
0000
0001
,
0031
0000
0100
1000
,
1000
0000
0010
0100
,
0100
0000
1000
0010
,
1000
0001
0100
0010
,
0100
0100
1000
0001
,
0100
1000
0100
0001
,
0010
1000
0100
0001
,
0100
0000
0010
0000
,
0100
0000
0010
0010
,
0100
0000
0001
0000
,
1000
1000
0010
0010
,
0100
0001
1000
0100
,
1000
0001
0100
0001
,
0010
0010
0002
0000
,
0203
0000
0010
0310
,
0110
0100
1000
0100
,
0001
0001
0000
1000
,
1000
0000
0000
0001
,
0001
0000
0000
0000
,
0020
0000
0000
0000
,
0130
0001
1000
0010
,
0010
0000
1000
0100
,
1000
0000
0001
0100
,
0001
0000
0010
1000
,
0010
0000
0010
0001
,
0010
0000
0010
0010
,
0100
0000
1000
0001
,
1000
0000
0000
0100
,
0010
0000
0010
0010
,
0002
0000
0000
0000
0000
0000
1003
0100
,
1000
0100
0000
0000
0000
0000
0000
0000;
